帖子 2017-09-01 1:53

wmv转mp4失败!附视频参数~

wmv转mp4到90%就程序卡主不动了,右侧统计数据面板上的数字也不动。
我转mp4的参数是:x264--2次编码模式--1000kbps。其他都是默认的。软件版本最新。
附该视频参数:

General
Complete name : C:\Users\Administrator\Downloads\结果\SNIS-340.wmv
Format : Windows Media
File size : 1.75 GiB
Duration : 2 h 30 min
Overall bit rate : 1 664 kb/s
Maximum Overall bit rate : 928 kb/s
Encoded date : UTC 1970-01-01 00:00:00.000
WM/EncodingSettings : Lavf53.6.0

Video
ID : 1
Format : WMV2
Codec ID : WMV2
Codec ID/Info : Windows Media Video 8
Description of the codec : wmv2
Duration : 2 h 30 min
Bit rate : 1 461 kb/s
Width : 720 pixels
Height : 404 pixels
Display aspect ratio : 16:9
Frame rate : 29.970 (29970/1000) FPS
Bit depth : 8 bits
Bits/(Pixel*Frame) : 0.168
Stream size : 1.53 GiB (88%)

Audio
ID : 2
Format : WMA
Format version : Version 2
Codec ID : 161
Codec ID/Info : Windows Media Audio
Description of the codec : Windows Media Audio V8
Duration : 2 h 30 min
Bit rate : 128 kb/s
Channel(s) : 2 channels
Sampling rate : 44.1 kHz
Bit depth : 16 bits
Stream size : 138 MiB (8%)